Tags
Language
Tags
November 2022
Su Mo Tu We Th Fr Sa
30 31 1 2 3 4 5
6 7 8 9 10 11 12
13 14 15 16 17 18 19
20 21 22 23 24 25 26
27 28 29 30 1 2 3

Trey Anastasio - The Beacon Jams (2022) [Official Digital Download 24/96]

Posted By: pyatak
Trey Anastasio - The Beacon Jams (2022) [Official Digital Download 24/96]

Trey Anastasio - The Beacon Jams (2022) [Official Digital Download 24/96]
FLAC (tracks) 24-bit/96 kHz | Front Cover | Time - 02:24:58 minutes | 2.91 GB
Rock | Studio Master, Official Digital Download

The Beacon Jams–which will mark its second anniversary of the event’s final show on Nov. 27–included performances by TAB members Cyro Baptista, James Casey, Natalie Cressman, Jennifer Hartswick, Russ Lawton, Ray Paczkowski, and in his final performance with the ensemble, the late Tony Markellis.

TRACKLIST

1. Trey Anastasio - Corona
2. Trey Anastasio - A Wave Of Hope
3. Trey Anastasio - What's The Use
4. Trey Anastasio - And Flew Away
5. Trey Anastasio - The Moma Dance
6. Trey Anastasio - The Silver Light
7. Trey Anastasio - Pebbles And Marbles
8. Trey Anastasio - Bouncing Around The Room
9. Trey Anastasio - Carini
10. Trey Anastasio - I Never Left Home
11. Trey Anastasio - Money, Love And Change
12. Trey Anastasio - Last Tube
13. Trey Anastasio - Quantegy
14. Trey Anastasio - You Enjoy Myself
15. Trey Anastasio - Goodbye Head
16. Trey Anastasio - Tube
17. Trey Anastasio - Slave To The Traffic Light
18. Trey Anastasio - First Tube

foobar2000 1.6.2 / Dynamic Range Meter 1.1.1
log date: 2022-11-24 17:41:42

––––––––––––––––––––––––––––––––––––––––
Analyzed: Trey Anastasio / The Beacon Jams
––––––––––––––––––––––––––––––––––––––––

DR Peak RMS Duration Track
––––––––––––––––––––––––––––––––––––––––
DR7 -0.90 dB -8.35 dB 7:25 01-Corona
DR7 -0.80 dB -8.76 dB 6:32 02-A Wave Of Hope
DR9 -0.90 dB -14.05 dB 7:20 03-What's The Use
DR7 -0.90 dB -9.29 dB 9:23 04-And Flew Away
DR7 -0.80 dB -8.26 dB 9:06 05-The Moma Dance
DR7 -0.90 dB -9.03 dB 5:02 06-The Silver Light
DR7 -0.90 dB -12.10 dB 7:59 07-Pebbles And Marbles
DR7 -0.90 dB -9.25 dB 3:42 08-Bouncing Around The Room
DR6 -0.90 dB -7.88 dB 9:04 09-Carini
DR7 -0.90 dB -9.57 dB 9:09 10-I Never Left Home
DR6 -0.90 dB -8.05 dB 8:24 11-Money, Love And Change
DR7 -0.90 dB -8.44 dB 8:30 12-Last Tube
DR6 -0.90 dB -8.69 dB 6:37 13-Quantegy
DR7 -0.90 dB -10.92 dB 14:34 14-You Enjoy Myself
DR6 -0.90 dB -8.68 dB 6:53 15-Goodbye Head
DR7 -0.85 dB -8.44 dB 8:06 16-Tube
DR6 -0.90 dB -11.92 dB 10:20 17-Slave To The Traffic Light
DR6 -0.90 dB -7.42 dB 7:05 18-First Tube
––––––––––––––––––––––––––––––––––––––––

Number of tracks: 18
Official DR value: DR7

Samplerate: 96000 Hz
Channels: 2
Bits per sample: 24
Bitrate: 3134 kbps
Codec: FLAC
================================================================================



Thanks to the Original customer.