Tags
Language
Tags
November 2022
Su Mo Tu We Th Fr Sa
30 31 1 2 3 4 5
6 7 8 9 10 11 12
13 14 15 16 17 18 19
20 21 22 23 24 25 26
27 28 29 30 1 2 3

Jan Harbeck Quartet - Balanced (2022) [Official Digital Download 24/96]

Posted By: pyatak
Jan Harbeck Quartet - Balanced (2022) [Official Digital Download 24/96]

Jan Harbeck Quartet - Balanced (2022) [Official Digital Download 24/96]
FLAC (tracks) 24-bit/96 kHz | Front Cover | Time - 55:49 minutes | 1014 MB
Jazz | Studio Master, Official Digital Download

The Jan Harbeck Quartet play modern acoustic jazz with a warm, accessible and expressive delivery. In 2008, the quartet received a Danish Grammy for their release ‘In the Still of the Night’ and they have since become one of the best selling Danish instrumental jazz groups. The quartet play a mix of Harbeck’s compositions and selected lesser-known jazz standards with a focus on strong melody and irresistible swing alongside heart-wrenching melancholic blues.

TRACKLIST

1. Jan Harbeck Quartet - Balanced
2. Jan Harbeck Quartet - One Fine Day
3. Jan Harbeck Quartet - Silver String Valley
4. Jan Harbeck Quartet - The Enchanter
5. Jan Harbeck Quartet - Tranquility
6. Jan Harbeck Quartet - Woodwind
7. Jan Harbeck Quartet - One Step at a Time
8. Jan Harbeck Quartet - The Drive
9. Jan Harbeck Quartet - To be Continued

foobar2000 1.6.2 / Dynamic Range Meter 1.1.1
log date: 2022-11-24 17:49:31

––––––––––––––––––––––––––––––––––––––––
Analyzed: Jan Harbeck Quartet / Balanced
––––––––––––––––––––––––––––––––––––––––

DR Peak RMS Duration Track
––––––––––––––––––––––––––––––––––––––––
DR11 -0.80 dB -14.32 dB 8:32 01-Balanced
DR10 -0.80 dB -14.13 dB 4:25 02-One Fine Day
DR11 -0.80 dB -14.22 dB 8:46 03-Silver String Valley
DR11 -0.80 dB -14.27 dB 4:48 04-The Enchanter
DR11 -0.80 dB -15.08 dB 6:10 05-Tranquility
DR11 -0.80 dB -15.27 dB 5:20 06-Woodwind
DR11 -0.80 dB -14.37 dB 4:57 07-One Step at a Time
DR10 -0.80 dB -12.98 dB 6:08 08-The Drive
DR11 -0.80 dB -15.15 dB 6:48 09-To be Continued
––––––––––––––––––––––––––––––––––––––––

Number of tracks: 9
Official DR value: DR11

Samplerate: 96000 Hz
Channels: 2
Bits per sample: 24
Bitrate: 2548 kbps
Codec: FLAC
================================================================================



Thanks to the Original customer.